Login
Username:
Password:
Remember Me:
[Signup]
[Recover Account]
Friends
BTScene
Friendly site

Ale Torrenty Team
Friendly site

Anime RG
Friendly site

KaranPC
Friendly site

P2PDL.com
Friendly site

Free Tutorials & Courses
Friendly site
Torrent Details For "Valerian And The City Of A Thousand Planets 2017 1080p BluRay Dual Audio [Hindi DD 5 ..."

Valerian And The City Of A Thousand Planets 2017 1080p BluRay Dual Audio [Hindi DD 5 ...

To download this torrent, you need a BitTorrent client: Vuze or BTGuard
Download this torrent
Download using Magnet Link





Health:
Seeds: 1,575
Leechers: 1,468
Completed: 2,258 
Last Checked: 06-12-2017 07:24:11

Uploader Reputation points : 1058
External: Torrent




Write a Review for the Uploader:   5   Say Thanks with one good review:


Details
Name:Valerian And The City Of A Thousand Planets 2017 1080p BluRay Dual Audio [Hindi DD 5 ...
Description:



General
Format                                   : Matroska
Format version                           : Version 4 / Version 2
File size                                : 2.22 GiB
Duration                                 : 2 h 17 min
Overall bit rate                         : 2 321 kb/s

Video
ID                                       : 1
Format                                   : AVC
Format/Info                              : Advanced Video Codec
Format profile                           : [email protected]
Format settings                          : CABAC / 5 Ref Frames
Format settings, CABAC                   : Yes
Format settings, RefFrames               : 5 frames
Codec ID                                 : V_MPEG4/ISO/AVC
Duration                                 : 2 h 17 min
Bit rate                                 : 2 026 kb/s
Width                                    : 1 920 pixels
Height                                   : 804 pixels
Display aspect ratio                     : 2.40:1
Frame rate mode                          : Constant
Frame rate                               : 23.976 (24000/1001) FPS
Color space                              : YUV
Chroma subsampling                       : 4:2:0
Bit depth                                : 8 bits
Scan type                                : Progressive
Bits/(Pixel*Frame)                       : 0.055
Stream size                              : 1.89 GiB (85%)
Writing library                          : x264 core 148 r2795 aaa9aa8
Default                                  : Yes
Forced                                   : No

Audio #1
ID                                       : 2
Format                                   : AC-3
Format/Info                              : Audio Coding 3
Format settings, Endianness              : Big
Codec ID                                 : A_AC3
Duration                                 : 2 h 17 min
Bit rate mode                            : Constant
Bit rate                                 : 224 kb/s
Channel(s)                               : 6 channels
Channel positions                        : Front: L C R, Side: L R, LFE
Sampling rate                            : 48.0 kHz
Frame rate                               : 31.250 FPS (1536 SPF)
Bit depth                                : 16 bits
Compression mode                         : Lossy
Delay relative to video                  : 21 s 300 ms
Stream size                              : 219 MiB (10%)
Language                                 : Hindi
Service kind                             : Complete Main
Default                                  : Yes
Forced                                   : No

Audio #2
ID                                       : 3
Format                                   : AAC
Format/Info                              : Advanced Audio Codec
Format profile                           : LC
Codec ID                                 : A_AAC-2
Duration                                 : 2 h 17 min
Bit rate                                 : 126 kb/s
Channel(s)                               : 2 channels
Channel positions                        : Front: L R
Sampling rate                            : 48.0 kHz
Frame rate                               : 46.875 FPS (1024 SPF)
Compression mode                         : Lossy
Stream size                              : 123 MiB (5%)
Language                                 : English
Default                                  : No
Forced                                   : No

Text
ID                                       : 4
Format                                   : UTF-8
Codec ID                                 : S_TEXT/UTF8
Codec ID/Info                            : UTF-8 Plain Text
Duration                                 : 2 h 8 min
Bit rate                                 : 55 b/s
Count of elements                        : 1571
Stream size                              : 52.5 KiB (0%)
Default                                  : Yes
Forced                                   : No


















YouTube Video:
Category:Movies
Language:Hindi  Hindi
Total Size:2.22 GB
Info Hash:8CF8BE349E243328ECEC15446889F4DD58251671
Added By:MovieFreak Verified UploaderMovie Pirate
Date Added:05-12-2017 10:01:25
Torrent Status:Torrent Verified


Ratings:Not Yet Rated (Log in to rate it)


Tracker:
http://ipv4.tracker.harry.lu/announce

This Torrent also has backup trackers
URLSeedersLeechersCompleted
http://ipv4.tracker.harry.lu/announce131140355
http://ipv4.tracker.harry.lu:80/announce131141355
http://tracker.electro-torrent.pl/announce1301130
http://tracker.electro-torrent.pl:80/announce1301140
http://retracker.mgts.by:80/announce120107228
http://pt.lax.mx:80/announce1138961
http://tracker.torrentyorg.pl:80/announce1261100
http://163.172.180.68/announce131141355
http://82.209.230.66/announce120108228
http://107.174.238.55:80/announce1138761
http://t.nyaatracker.com/announce000
http://t.nyaatracker.com:80/announce000
udp://tracker.coppersurfer.tk:6969/announce110106205
udp://tracker.coppersurfer.tk:80/announce110106205
udp://tracker.coppersurfer.tk:6969110106205


File List: 





Comments
No comments still posted